Loading...
Error
 

Скачать торрент (JPop) Ayumi Hamasaki - A BALLADS 2 - 2021, [TR24] [OF] [FLAC, tracks, lossless]

 
Автор Сообщение

Myster_Ya

post 10-Апр-21 22:22

pic
Ayumi Hamasaki - A BALLADS 2

Формат записи/Источник записи: [TR24][OF]
Наличие водяных знаков: Нет
Год издания: 2021.04.08
Жанр: JPop
Издатель (лейбл): avex trax
Продолжительность: 02:32:01
Контейнер: FLAC (*.flac)
Тип рипа: tracks
Разрядность: 24/48
Формат: PCM
Количество каналов: 2.0
Источник (релизер): WEB
Наличие сканов в содержимом раздачи: Нет
Треклист
[DISC-1]

01. No way to say
02. CAROLS
03. HEAVEN
04. Together When...
05. You were...
06. momentum
07. fated
08. BALLAD
09. Secret
10. MOON
11. Zutto...
12. forgiveness
13. Virgin Road
14. JEWEL
15. how beautiful you are

[DISC-2]

01. オヒアの木
02. Days
03. beloved
04. Moments
05. walking proud
06. rainy day
07. Curtain call
08. Memorial address
09. Love song
10. æternal
11. HOPE or PAIN
12. Life
13. untitled ~for her~
14. SAKURA
15. TODAY
16. 春よ、来い
DR disc 1

Код:

foobar2000 1.6.2 / Замер динамического диапазона (DR) 1.1.1
Дата отчёта:    2021-04-10 22:14:17

--------------------------------------------------------------------------------
Анализ:   Ayumi Hamasaki / A BALLADS 2
--------------------------------------------------------------------------------

DR         Пики         RMS           Продолжительность трека
--------------------------------------------------------------------------------
DR6       -0.31 дБ    -9.32 дБ      4:44 01-No way to say (A BALLADS 2)
DR7       -0.11 дБ   -10.36 дБ      5:31 02-CAROLS (A BALLADS 2)
DR7       -0.11 дБ    -9.91 дБ      4:20 03-HEAVEN (A BALLADS 2)
DR6       -0.11 дБ    -8.81 дБ      5:14 04-Together When... (A BALLADS 2)
DR5       -0.21 дБ    -7.88 дБ      4:48 05-You were... (A BALLADS 2)
DR6       -0.11 дБ    -8.35 дБ      4:13 06-momentum (A BALLADS 2)
DR6       -0.11 дБ    -8.52 дБ      5:36 07-fated (A BALLADS 2)
DR6       -0.10 дБ   -10.32 дБ      5:21 08-BALLAD (A BALLADS 2)
DR7       -0.10 дБ    -9.50 дБ      5:00 09-Secret (A BALLADS 2)
DR5       -0.11 дБ    -8.18 дБ      5:47 10-MOON (A BALLADS 2)
DR6       -0.31 дБ    -8.92 дБ      4:50 11-Zutto... (A BALLADS 2)
DR6       -0.12 дБ    -9.00 дБ      5:51 12-forgiveness (A BALLADS 2)
DR6       -1.30 дБ   -10.60 дБ      5:54 13-Virgin Road (A BALLADS 2)
DR11      -0.11 дБ   -14.39 дБ      4:17 14-JEWEL (A BALLADS 2)
DR5       -0.21 дБ    -8.92 дБ      5:02 15-how beautiful you are (A BALLADS 2)
--------------------------------------------------------------------------------

Количество треков:  15
Реальные значения DR:  DR6

Частота:      48000 Гц
Каналов:      2
Разрядность:     24
Битрейт:      1751 кбит/с
Кодек:      FLAC
================================================================================
DR disc 2

Код:

foobar2000 1.6.2 / Замер динамического диапазона (DR) 1.1.1
Дата отчёта:    2021-04-10 22:14:28

--------------------------------------------------------------------------------
Анализ:   Ayumi Hamasaki / A BALLADS 2
--------------------------------------------------------------------------------

DR         Пики         RMS           Продолжительность трека
--------------------------------------------------------------------------------
DR7       -0.09 дБ   -10.80 дБ      4:40 16, 01-オヒアの木 (A BALLADS 2)
DR6       -0.10 дБ    -8.50 дБ      5:03 17, 02-Days (A BALLADS 2)
DR5       -0.11 дБ    -8.01 дБ      5:19 18, 03-beloved (A BALLADS 2)
DR6       -0.11 дБ    -8.14 дБ      5:33 19, 04-Moments (A BALLADS 2)
DR6       -0.11 дБ    -9.15 дБ      5:17 20, 05-walking proud (A BALLADS 2)
DR6       -0.08 дБ    -8.87 дБ      4:04 21, 06-rainy day (A BALLADS 2)
DR8       -0.11 дБ   -12.27 дБ      3:47 22, 07-Curtain call (A BALLADS 2)
DR6       -0.11 дБ    -9.99 дБ      3:58 23, 08-Memorial address (A BALLADS 2)
DR6       -0.11 дБ    -8.31 дБ      4:26 24, 09-Love song (A BALLADS 2)
DR6       -0.10 дБ    -8.05 дБ      4:44 25, 10-?ternal (A BALLADS 2)
DR6       -0.20 дБ    -8.19 дБ      4:24 26, 11-HOPE or PAIN (A BALLADS 2)
DR6       -0.11 дБ    -8.16 дБ      3:50 27, 12-Life (A BALLADS 2)
DR6       -0.11 дБ    -8.89 дБ      5:36 28, 13-untitled ~for her~ (A BALLADS 2)
DR6       -0.10 дБ    -8.22 дБ      4:31 29, 14-SAKURA (A BALLADS 2)
DR6       -0.11 дБ    -9.11 дБ      5:18 30, 15-TODAY (A BALLADS 2)
DR6       -0.08 дБ    -9.46 дБ      5:03 31, 16-春よ、来い (A BALLADS 2)
--------------------------------------------------------------------------------

Количество треков:  16
Реальные значения DR:  DR6

Частота:      48000 Гц
Каналов:      2
Разрядность:     24
Битрейт:      1739 кбит/с
Кодек:      FLAC
================================================================================
Ayumi Hamasaki - A BALLADS 2



Ayumi Hamasaki - A BALLADS 2 (2021) (24 - 48) FLAC.torrent
Трекер: Зарегистрирован

magnet ссылка

 


Скачать .torrent

21 KB

Статус: проверено (by Snowden в 11-Апр-21 02:03)
Зарегистрирован: 10-Апр-21 22:22
Скачан: 11 раз
Размер: 1.87 GB | 
Поблагодарили:
Скачать (JPop) Ayumi Hamasaki - A BALLADS 2 - 2021, [TR24] [OF] [FLAC, tracks, lossless] торрент
 


Похожие раздачи

Текущее время: 06-Май 13:17

Часовой пояс: GMT + 3



Вы не можете начинать темы
Вы не можете отвечать на сообщения
Вы не можете редактировать свои сообщения
Вы не можете удалять свои сообщения
Вы не можете голосовать в опросах
Вы не можете прикреплять файлы к сообщениям
Вы не можете скачивать файлы