Loading...
Error
 

Скачать торрент Боруто: Следующее поколение Наруто / Boruto: Naruto Next Generations (Датэ Хаято) [1-142 из XXX][RUS][2017-2019, Приключения, комедия, боевые искусства, сёнэн, HDTV 720p] [Ancord]

 
Автор Сообщение

ichigo11

post 13-Апр-17 17:52

pic
Боруто: Следующее поколение Наруто / Boruto: Naruto Next Generations
[1-142 из XXX]

Год выпуска: 2017-2019
Страна: Япония
Жанр: Приключения, комедия, боевые искусства, сёнэн
Продолжительность: ~ 00:24:00
Перевод: Любительский Одноголосый [Ancord]
Студия: pic
Режиссёр: Датэ Хаято
Описание: Прошли годы после окончания Четвертой мировой войны шиноби, времена изменились, грядет смена поколений. Главным героем фильма на сей раз станет мальчик Боруто - ученик Академии ниндзя, сын легендарного ниндзя Наруто Узумаки.
Качество: HDTV 720p
Формат: mp4
Видео кодек: AVC
Аудио кодек: AAC
Видео: MPEG4 AVC, 1280х720, 1 799 kb/s, 23.976 fps
Аудио: AAC, 48.0 KHz, 2ch, 192 kbps
MediaInfo
General
Complete name : D:\Мои раздачи\[AniDub]_Boruto_-_Naruto_Next_Generations_[720p]_[Ancord]\[AniDub]_Boruto_-_Naruto_Next_Generations_[001]_[720p_x264_Aac]_[Ancord].mp4
Format : MPEG-4
Format profile : Base Media
Codec ID : isom (isom)
File size : 354 MiB
Duration : 24 min 49 s
Overall bit rate mode : Variable
Overall bit rate : 1 995 kb/s
Encoded date : UTC 2017-04-04 22:02:56
Tagged date : UTC 2017-04-04 22:02:56
Writing application : Yamb 2.1.0.0

Video
ID : 1
Format : AVC
Format/Info : Advanced Video Codec
Format profile : [email protected]
Format settings, CABAC : Yes
Format settings, ReFrames : 3 frames
Codec ID : avc1
Codec ID/Info : Advanced Video Coding
Duration : 24 min 49 s
Bit rate mode : Variable
Bit rate : 1 799 kb/s
Maximum bit rate : 9 271 kb/s
Width : 1 280 pixels
Height : 720 pixels
Display aspect ratio : 16:9
Frame rate mode : Variable
Frame rate : 23.976 (24000/1001) FPS
Minimum frame rate : 23.976 FPS
Maximum frame rate : 23.988 FPS
Standard : NTSC
Color space : YUV
Chroma subsampling : 4:2:0
Bit depth : 8 bits
Scan type : Progressive
Bits/(Pixel*Frame) : 0.081
Stream size : 319 MiB (90%)
Language : English
Encoded date : UTC 2017-04-05 19:45:03
Tagged date : UTC 2017-04-04 22:04:08
Color range : Limited

Audio
ID : 2
Format : AAC
Format/Info : Advanced Audio Codec
Format profile : LC
Codec ID : 40
Duration : 24 min 49 s
Bit rate mode : Variable
Bit rate : 192 kb/s
Maximum bit rate : 196 kb/s
Channel(s) : 2 channels
Channel positions : Front: L R
Sampling rate : 48.0 kHz
Frame rate : 46.875 FPS (1024 spf)
Compression mode : Lossy
Stream size : 34.1 MiB (10%)
Language : English
Encoded date : UTC 2017-04-04 22:04:08
Tagged date : UTC 2017-04-04 22:04:08

Скриншоты



(AniDub)_Boruto_-_Naruto_Next_Generations_(720p)_(Ancord).torrent
 ЗОЛОТАЯ РАЗДАЧА! СКАЧАННОЕ НЕ ЗАСЧИТЫВАЕТСЯ! 
Вечный
Трекер: Зарегистрирован

magnet ссылка

 


Скачать .torrent

279 KB

Статус: проверено (by Арт33 в 10-Фев-20 16:57)
Зарегистрирован: 10-Фев-20 14:04
Скачан: 107 раз
Размер: 52.43 GB | 
Поблагодарили:
Скачать Боруто: Следующее поколение Наруто / Boruto: Naruto Next Generations (Датэ Хаято) [1-142 из XXX][RUS][2017-2019, Приключения, комедия, боевые искусства, сёнэн, HDTV 720p] [Ancord] торрент
 


Похожие раздачи

ichigo11

post 13-Апр-17 17:52 (спустя 28 секунд)

For information:
142 серии

Snowden

post 13-Апр-17 18:02 (спустя 10 минут)

Ц Цитата:

Writing application : Yamb 2.1.0.0 [http://...]
Ссылки убрать из MediaInfo!

HDTV

post 02-Окт-17 15:56 (спустя 5 месяцев 18 дней)

Не понимаю, почему нельзя с сабами дополнительно выложить??? headbang

genarek90

post 08-Янв-18 15:13 (спустя 3 месяца 5 дней)

а cuba77 еще переводит онемэ? Я просто только в его озвучке смотрю...

CTACUAN

post 11-Июл-18 16:23 (спустя 6 месяцев)

genarek90
давно уже не наблюдаю его на Анидабе, наверное нет.

Anchi

post 28-Янв-19 17:05 (спустя 6 месяцев)

Они уже 90 серий намутили? facepalm Как же я отстал от жизни...

Rob24

post 11-Янв-21 10:31 (спустя 1 год 11 месяцев)

Спасибо, встаньте на раздачу пожалуйста

Текущее время: 16-Май 08:55

Часовой пояс: GMT + 3



Вы не можете начинать темы
Вы не можете отвечать на сообщения
Вы не можете редактировать свои сообщения
Вы не можете удалять свои сообщения
Вы не можете голосовать в опросах
Вы не можете прикреплять файлы к сообщениям
Вы не можете скачивать файлы